<?xml version="1.0" standalone="no"?>
<!DOCTYPE svg PUBLIC "-//W3C//DTD SVG 1.1//EN" "http://www.w3.org/Graphics/SVG/1.1/DTD/svg11.dtd" >
<!--
2014-7-22: Created.
-->
<svg>
<metadata>
Created by FontForge 20120731 at Tue Jul 22 14:06:04 2014
 By Tobi Schäfer,,,
Created by Tobi Sch&#195;&#164;fer,,, with FontForge 2.0 (http://fontforge.sf.net)
</metadata>
<defs>
<font id="Untitled1" horiz-adv-x="2400" >
  <font-face 
    font-family="Untitled1"
    font-weight="500"
    font-stretch="normal"
    units-per-em="2400"
    panose-1="2 0 6 9 0 0 0 0 0 0"
    ascent="1920"
    descent="-480"
    bbox="-500 -150 2700 2600"
    underline-thickness="120"
    underline-position="-240"
    unicode-range="U+0020-E03E"
  />
    <missing-glyph />
    <glyph glyph-name="uniE001" unicode="&#xe001;" 
d="M200 50v2300q0 21 14.5 35.5t35.5 14.5h1250v-550q0 -21 14.5 -35.5t35.5 -14.5h550v-700h-1400q-41 0 -70.5 -29.5t-29.5 -70.5v-500q0 -41 29.5 -70.5t70.5 -29.5h1400v-350q0 -21 -14.5 -35.5t-35.5 -14.5h-1800q-21 0 -35.5 14.5t-14.5 35.5zM500 1400h300v300h-300
v-300zM500 1800h300v300h-300v-300zM600 1500v100h100v-100h-100zM600 1900v100h100v-100h-100zM800 500h100v200h-100v-200zM800 800h100v200h-100v-200zM900 700h100v100h-100v-100zM900 1400h300v300h-300v-300zM900 1800h300v300h-300v-300zM1000 500h100v200h-100v-200
zM1000 800h100v200h-100v-200zM1000 1500v100h100v-100h-100zM1000 1900v100h100v-100h-100zM1200 600v400h100v-400h200v-100h-200zM1600 500v100h200v100h100v-100l-100 -100h-200zM1600 800v100l100 100h200v-100h-200v-100h-100zM1600 1950v450l500 -500h-450
q-21 0 -35.5 14.5t-14.5 35.5zM1700 700v100h100v-100h-100zM2000 500h100v200h-100v-200zM2000 800h100v200h-100v-200zM2100 700h100v100h-100v-100zM2200 500h100v200h-100v-200zM2200 800h100v200h-100v-200z" />
    <glyph glyph-name="uniE002" unicode="&#xe002;" 
d="M200 50v2300q0 20 14.5 35t35.5 15h1250v-550q0 -21 14.5 -35.5t35.5 -14.5h550v-700h-1400q-41 0 -70.5 -29.5t-29.5 -70.5v-500q0 -41 29.5 -70.5t70.5 -29.5h1400v-350q0 -21 -14.5 -35.5t-35.5 -14.5h-1800q-21 0 -35.5 14.5t-14.5 35.5zM480 1812l340 -205v155
l-151 88l151 84v154l-340 -197v-79zM800 500h100v200h100v-200h100v500h-100v-200h-100v200h-100v-500zM880 1607l340 205v79l-340 197v-154l151 -84l-151 -88v-155zM1200 900h100v-400h100v400h100v100h-300v-100zM1600 500h100v300h100v-300h100v500h-100v-100h-100v100
h-100v-500zM1600 1950v450l500 -500h-450q-21 0 -35.5 14.5t-14.5 35.5zM2000 600v400h100v-400h200v-100h-200z" />
    <glyph glyph-name="uniE003" unicode="&#xe003;" 
d="M200 50v2300q0 21 14.5 35.5t35.5 14.5h1250v-550q0 -21 14.5 -35.5t35.5 -14.5h550v-700h-1400q-41 0 -70.5 -29.5t-29.5 -70.5v-500q0 -41 29.5 -70.5t70.5 -29.5h1400v-350q0 -21 -14.5 -35.5t-35.5 -14.5h-1800q-21 0 -35.5 14.5t-14.5 35.5zM500 1600h300v100h-300
v-100zM500 1800h300v100h-300v-100zM500 2000h300v100h-300v-100zM800 600v300l100 100h200v-100h-200v-300h200v-100h-200zM900 1600h300v100h-300v-100zM900 1800h300v100h-300v-100zM900 2000h300v100h-300v-100zM1200 500v100h200v100h100v-100l-100 -100h-200z
M1200 800v100l100 100h200v-100h-200v-100h-100zM1300 700v100h100v-100h-100zM1600 500v500h100v-400h100v-100h-200zM1600 1950v450l500 -500h-450q-21 0 -35.5 14.5t-14.5 35.5zM1800 600v400h100v-400h-100z" />
    <glyph glyph-name="uniE004" unicode="&#xe004;" 
d="M200 50v2300q0 21 14.5 35.5t35.5 14.5h1250v-550q0 -21 14.5 -35.5t35.5 -14.5h550v-700h-1400q-41 0 -70.5 -29.5t-29.5 -70.5v-500q0 -41 29.5 -70.5t70.5 -29.5h1400v-350q0 -21 -14.5 -35.5t-35.5 -14.5h-1800q-21 0 -35.5 14.5t-14.5 35.5zM500 1400h500v200h200
v500h-500v-200h-200v-500zM600 1500v300h100v-200h200v-100h-300zM800 500v500h200l100 -100v-200l-100 -100h-100v-100h-100zM800 1700v300h300v-300h-300zM900 700h100v200h-100v-200zM1200 500v500h200l100 -100v-300l-100 -100h-200zM1300 600h100v300h-100v-300z
M1600 500h100v200h200v100h-200v100h200v100h-300v-500zM1600 1950v450l500 -500h-450q-21 0 -35.5 14.5t-14.5 35.5z" />
    <glyph glyph-name="space" unicode=" " 
 />
    <glyph glyph-name="uniE005" unicode="&#xe005;" 
d="M1804 2370l566 -564q30 -30 30 -72t-30 -70q-28 -30 -70 -30t-70 30l-72 70l-558 -534v-600l-424 420l-416 -414l-760 -606l606 760l414 416l-420 424h600l534 558l-70 72q-30 28 -30 70t30 70q28 30 70 30t70 -30z" />
    <glyph glyph-name="uniE006" unicode="&#xe006;" 
d="M1812 2400l-628 -2400h-296l74 286q-164 42 -330 143t-280 204t-219 224t-144 177t-59 86l-52 80l52 80q12 20 40 60t98 127t149 171t194 180t233 167t265 118t291 47q122 0 242 -34l74 284h296zM2522 1200l-52 -80q-14 -24 -51 -76t-127 -159t-191 -205t-248 -200
t-293 -158l76 290q44 30 89 68t92 88t81 88t82 101t67 87t66 88t49 68q-194 254 -280 350l78 292q134 -108 263 -251t175 -207t72 -104zM1026 528l74 282q-214 36 -357 203t-143 387q0 170 92 316q-204 -174 -452 -516q420 -564 786 -672zM968 1524l-214 -212
q98 -248 308 -382l94 94l46 174q-60 56 -118 138t-88 136z" />
    <glyph glyph-name="uniE007" unicode="&#xe007;" 
d="M2602 1202h-400v-1200h-600v800h-600v-800h-600v1200h-400l1312 1288z" />
    <glyph glyph-name="uniE008" unicode="&#xe008;" 
d="M2200 1800v300q0 42 -29 71t-71 29h-300v200h-200v-200h-1000v200h-200v-200h-300q-42 0 -71 -29t-29 -71v-300h2200zM0 1600v-1500q0 -40 29 -70t71 -30h2000q42 0 71 30t29 70v1500h-2200zM200 1200h200v-200h-200v200zM600 1200h200v-200h-200v200zM1000 1200h200
v-200h-200v200zM1400 1200h200v-200h-200v200zM1800 1200h200v-200h-200v200zM200 800h200v-200h-200v200zM600 800h200v-200h-200v200zM1000 800h200v-200h-200v200zM1400 800h200v-200h-200v200zM1800 800h200v-200h-200v200zM200 400h200v-200h-200v200zM600 400h200
v-200h-200v200zM1000 400h200v-200h-200v200zM1400 400h200v-200h-200v200zM1800 400h200v-200h-200v200z" />
    <glyph glyph-name="uniE009" unicode="&#xe009;" 
d="M800 2200h600q324 0 562 -237t238 -563v-600q0 -330 -237 -565t-563 -235h-600q-330 0 -565 235t-235 565v600q0 330 235 565t565 235zM1600 1800h-1000q-82 0 -141 -59t-59 -141v-1000q0 -82 59 -141t141 -59h1000q82 0 141 59t59 141v1000q0 82 -59 141t-141 59z" />
    <glyph glyph-name="uniE00A" unicode="&#xe00a;" 
d="M1554 14l480 480l-706 706l706 706l-480 480l-1184 -1188z" />
    <glyph glyph-name="uniE00B" unicode="&#xe00b;" 
d="M1000 300v1600q0 42 -29 71t-71 29h-400q-42 0 -71 -29t-29 -71v-1600q0 -42 29 -71t71 -29h400q42 0 71 29t29 71zM1800 300v1600q0 42 -29 71t-71 29h-400q-42 0 -71 -29t-29 -71v-1600q0 -42 29 -71t71 -29h400q42 0 71 29t29 71z" />
    <glyph glyph-name="uniE00C" unicode="&#xe00c;" 
d="M1200 2394q324 0 599 -160t435 -435t160 -599t-160 -599t-435 -435t-599 -160t-599 160t-435 435t-160 599t160 599t435 435t599 160zM600 1400v-400h1200v400h-1200z" />
    <glyph glyph-name="uniE00D" unicode="&#xe00d;" 
d="M600 2100v-400q0 -42 -29 -71t-71 -29h-400q-42 0 -71 29t-29 71v400q0 42 29 71t71 29h400q42 0 71 -29t29 -71zM1400 2100v-400q0 -42 -29 -71t-71 -29h-400q-42 0 -71 29t-29 71v400q0 42 29 71t71 29h400q42 0 71 -29t29 -71zM2200 2100v-400q0 -42 -29 -71t-71 -29
h-400q-42 0 -71 29t-29 71v400q0 42 29 71t71 29h400q42 0 71 -29t29 -71zM600 1300v-400q0 -42 -29 -71t-71 -29h-400q-42 0 -71 29t-29 71v400q0 42 29 71t71 29h400q42 0 71 -29t29 -71zM1400 1300v-400q0 -42 -29 -71t-71 -29h-400q-42 0 -71 29t-29 71v400q0 42 29 71
t71 29h400q42 0 71 -29t29 -71zM2200 1300v-400q0 -42 -29 -71t-71 -29h-400q-42 0 -71 29t-29 71v400q0 42 29 71t71 29h400q42 0 71 -29t29 -71zM600 500v-400q0 -42 -29 -71t-71 -29h-400q-42 0 -71 29t-29 71v400q0 42 29 71t71 29h400q42 0 71 -29t29 -71zM1400 500
v-400q0 -42 -29 -71t-71 -29h-400q-42 0 -71 29t-29 71v400q0 42 29 71t71 29h400q42 0 71 -29t29 -71zM2200 500v-400q0 -42 -29 -71t-71 -29h-400q-42 0 -71 29t-29 71v400q0 42 29 71t71 29h400q42 0 71 -29t29 -71z" />
    <glyph glyph-name="uniE00E" unicode="&#xe00e;" 
d="M1800 2200h550q20 0 35 -15t15 -35v-100q0 -22 -14 -36t-36 -14h-2100q-22 0 -36 14t-14 36v100q0 20 15 35t35 15h550v200q0 82 59 141t141 59h600q82 0 141 -59t59 -141v-200zM1600 2200v200h-600v-200h600zM400 1800h1800v-1600q0 -82 -59 -142t-141 -60h-1400
q-82 0 -141 60t-59 142v1600zM600 200h200v1400h-200v-1400zM1000 200h200v1400h-200v-1400zM1400 200h200v1400h-200v-1400zM1800 200h200v1400h-200v-1400z" />
    <glyph glyph-name="uniE00F" unicode="&#xe00f;" 
d="M1200 2394q324 0 599 -160t435 -435t160 -599t-160 -599t-435 -435t-599 -160t-599 160t-435 435t-160 599t160 599t435 435t599 160zM1000 1800v-400h-400v-400h400v-400h400v400h400v400h-400v400h-400z" />
    <glyph glyph-name="uniE010" unicode="&#xe010;" 
d="M1582 1044l290 -898l-768 550l-764 -550l292 894l-776 560h958l292 800h4l292 -800h944zM336 142l4 2z" />
    <glyph glyph-name="uniE011" unicode="&#xe011;" 
d="M1026 -92l-482 480l706 706l-706 706l482 480l1144 -1142l42 -44l-2 -2v-2z" />
    <glyph glyph-name="uniE012" unicode="&#xe012;" 
d="M1200 2354q236 0 449 -91t368 -246t246 -368t91 -449t-91 -449t-246 -368t-368 -246t-449 -91t-449 91t-368 246t-246 368t-91 449t91 449t246 368t368 246t449 91zM1372 1098l116 604q8 40 -16 69t-66 29h-414q-40 0 -64 -29t-16 -69l116 -604q8 -40 43 -69t75 -29h108
q40 0 75 29t43 69zM1400 800h-400v-200h400v200z" />
    <glyph glyph-name="uniE013" unicode="&#xe013;" 
d="M952 812l38 -34l210 210l-424 424l778 778l494 -494l-190 -192l36 -36q92 -92 154 -198l58 58q70 70 125 176t55 192q0 186 -132 318l-282 282q-132 132 -318 132q-190 0 -318 -132l-566 -566q-132 -128 -132 -318q0 -186 132 -318zM246 386l282 -282q132 -132 318 -132
q190 0 318 132l566 566q132 132 132 318t-132 318l-282 282q-24 24 -38 34l-210 -210l424 -424l-778 -778l-494 496l190 190l-36 36q-92 90 -150 202l-110 -110q-132 -132 -132 -318q0 -188 132 -320z" />
    <glyph glyph-name="uniE014" unicode="&#xe014;" 
d="M2522 1200l-52 -80q-12 -20 -40 -60t-98 -127t-149 -171t-194 -180t-233 -167t-265 -118t-291 -47t-291 47t-265 118t-233 167t-194 180t-149 171t-98 127t-40 60l-52 80l52 80q12 20 40 60t98 127t149 171t194 180t233 167t265 118t291 47t291 -47t265 -118t233 -167
t194 -180t149 -171t98 -127t40 -60zM1200 480q128 0 247 40t201 91t171 143t133 151t116 163t94 132q-2 2 -57 75t-84 110t-87 106t-115 127t-117 108q98 -148 98 -326q0 -248 -176 -424t-424 -176t-424 176t-176 424q0 170 92 316q-204 -174 -452 -516q14 -20 81 -116
t112 -157t136 -155t175 -150t206 -99t250 -43zM968 1524l-214 -212q98 -248 308 -382l210 210q-74 48 -150 144t-114 168z" />
    <glyph glyph-name="uniE015" unicode="&#xe015;" 
d="M200 2400v-2400h2200v2400h-2200zM2200 200h-1800v1800h1800v-1800zM800 1600h-200v200h200v-200zM2000 1600h-1000v200h1000v-200zM800 1200h-200v200h200v-200zM2000 1200h-1000v200h1000v-200zM800 800h-200v200h200v-200zM2000 800h-1000v200h1000v-200zM800 400
h-200v200h200v-200zM2000 600h-1000v-200h1000v200z" />
    <glyph glyph-name="uniE016" unicode="&#xe016;" 
d="M1826 864l600 -600q14 -16 14 -36t-14 -36l-218 -218q-16 -14 -36 -14t-36 14l-600 600q-238 -156 -522 -156q-400 0 -684 284t-284 684t284 684t684 284t684 -284t284 -684q0 -284 -156 -522zM352 1386q0 -272 194 -466t468 -194t467 193t193 467t-193 467t-467 193
t-468 -194t-194 -466z" />
    <glyph glyph-name="uniE017" unicode="&#xe017;" 
d="M896 68l1636 1640l-424 424l-1214 -1214l-412 414l-424 -424z" />
    <glyph glyph-name="uniE018" unicode="&#xe018;" 
d="M0 1900v200q0 42 29 71t71 29h200q42 0 71 -29t29 -71v-200q0 -40 -29 -70t-71 -30h-200q-42 0 -71 30t-29 70zM600 1900v200q0 42 29 71t71 29h1600q42 0 71 -29t29 -71v-200q0 -40 -29 -70t-71 -30h-1600q-42 0 -71 30t-29 70zM0 1300v200q0 42 29 71t71 29h200
q42 0 71 -29t29 -71v-200q0 -40 -29 -70t-71 -30h-200q-42 0 -71 30t-29 70zM600 1300v200q0 42 29 71t71 29h1600q42 0 71 -29t29 -71v-200q0 -40 -29 -70t-71 -30h-1600q-42 0 -71 30t-29 70zM0 700v200q0 42 29 71t71 29h200q42 0 71 -29t29 -71v-200q0 -40 -29 -70
t-71 -30h-200q-42 0 -71 30t-29 70zM600 700v200q0 42 29 71t71 29h1600q42 0 71 -29t29 -71v-200q0 -40 -29 -70t-71 -30h-1600q-42 0 -71 30t-29 70zM0 100v200q0 42 29 71t71 29h200q42 0 71 -29t29 -71v-200q0 -40 -29 -70t-71 -30h-200q-42 0 -71 30t-29 70zM600 100
v200q0 42 29 71t71 29h1600q42 0 71 -29t29 -71v-200q0 -40 -29 -70t-71 -30h-1600q-42 0 -71 30t-29 70z" />
    <glyph glyph-name="uniE019" unicode="&#xe019;" 
d="M1764 212l-564 564l-564 -564l-424 424l564 564l-564 564l424 424l564 -564l564 564l424 -424l-564 -564l564 -564z" />
    <glyph glyph-name="uniE01A" unicode="&#xe01a;" 
d="M2200 2400v-200h-2000v200h2000zM300 2000h1800l-700 -1000v-600l-400 -400v1000z" />
    <glyph glyph-name="uniE01B" unicode="&#xe01b;" 
d="M2200 800h-800v-800h-600v800h-800v600h800v800h600v-800h800v-600z" />
    <glyph glyph-name="uniE01C" unicode="&#xe01c;" 
d="M1192 2384q324 0 598 -160t434 -434t160 -598t-160 -598t-434 -434t-598 -160t-598 160t-434 434t-160 598t160 598t434 434t598 160zM1192 2020q-342 0 -585 -243t-243 -585q0 -344 243 -586t585 -242t585 242t243 586q0 342 -243 585t-585 243zM910 1810q44 0 76 -32
t32 -78t-32 -78t-76 -32q-46 0 -78 33t-32 77t32 77t78 33zM1416 1642l2 2q-18 28 -18 56q0 44 32 77t78 33q44 0 76 -32t32 -78t-32 -78t-76 -32q-28 0 -58 20l-110 -290q34 -44 34 -102q0 -72 -51 -123t-123 -51t-123 51t-51 123q0 64 41 113t103 59zM1710 1418
q46 0 77 -31t31 -77t-32 -78t-76 -32q-46 0 -78 32t-32 78q0 44 32 76t78 32zM690 1418q46 0 78 -32t32 -76q0 -46 -32 -78t-78 -32q-44 0 -76 32t-32 78t31 77t77 31z" />
    <glyph glyph-name="uniE01D" unicode="&#xe01d;" 
d="M976 366l76 -302q80 -10 148 -10q54 0 148 10l76 302l12 4q92 26 186 78l10 6l268 -162q112 88 208 210l-160 268l6 10q48 88 78 186l2 12l304 76q10 80 10 148q0 56 -10 146l-304 76l-2 12q-32 102 -78 186l-6 10l160 268q-88 116 -208 210l-268 -162l-10 6
q-90 50 -186 78l-12 2l-76 304q-80 10 -148 10q-54 0 -148 -10l-76 -304l-10 -2q-100 -28 -188 -78l-10 -6l-266 162q-118 -94 -210 -210l160 -268l-6 -10q-50 -94 -76 -186l-4 -12l-302 -76q-12 -96 -12 -146q0 -66 12 -148l302 -76l4 -12q28 -98 76 -186l6 -10l-160 -268
q90 -118 210 -210l266 162l10 -6q90 -52 188 -78zM1200 1630q178 0 304 -126t126 -302q0 -178 -126 -304t-304 -126t-304 126t-126 304q0 176 126 302t304 126z" />
    <glyph glyph-name="uniE01E" unicode="&#xe01e;" 
d="M1804 368l452 454l-1156 1158l-1160 -1158l454 -454l704 706z" />
    <glyph glyph-name="uniE01F" unicode="&#xe01f;" 
d="M1300 436l1156 1158l-452 454l-706 -706l-704 706l-454 -454z" />
    <glyph glyph-name="uniE020" unicode="&#xe020;" 
d="M2200 1400h-1800v-600h1800v600z" />
    <glyph glyph-name="uniE021" unicode="&#xe021;" 
d="M2072 1059q-70 0 -117 16.5t-82 47t-61 70.5t-54 87q-28 52 -68 108t-96 100.5t-140.5 72.5t-206.5 23q-70 0 -112.5 16.5t-73 42.5t-51.5 63.5t-40 84.5q-23 47 -53.5 100.5t-82 98t-131.5 70.5t-206 26h-450q-9 0 -18.5 -4.5t-14.5 -12t-9.5 -14.5t-4.5 -16t4.5 -18.5
t9.5 -16.5t14.5 -9.5t18.5 -2.5h450q103 0 168.5 -18.5t108 -51.5t65.5 -77.5t47 -96.5q9 -19 21 -42t23.5 -44t25.5 -40t33 -38h-942q-9 0 -18.5 -4.5t-14.5 -9t-9.5 -14q-4.5 -8.5 -4.5 -18.5q0 -9 4.5 -19t9.5 -14.5t14.5 -9t18.5 -4.5h1200q103 5 173.5 -16.5t117 -59
t79.5 -84.5t61 -98q19 -33 37.5 -61t40 -56t47 -54t63.5 -45q-38 -19 -63.5 -40t-47 -44.5t-40 -49t-37.5 -53.5q-28 -42 -61 -84.5t-79.5 -73t-117 -49t-173.5 -14.5q-70 0 -112.5 14.5t-73 42.5t-49 65.5t-42.5 79.5q-23 52 -53.5 105.5t-82 98t-131.5 70.5t-206 26h-450
q-9 0 -18.5 -4.5t-14.5 -11.5t-9.5 -14.5t-4.5 -16.5q0 -14 4.5 -21t9.5 -14t14.5 -9.5t18.5 -2.5h450q103 0 168.5 -18.5t105.5 -51.5t65.5 -77.5t49.5 -96.5q9 -19 21 -42t23.5 -44t25.5 -40t33 -38h-942q-9 0 -18.5 -4.5t-14.5 -9t-9.5 -14t-4.5 -19.5q0 -9 4.5 -18.5
t9.5 -16.5t14.5 -9t18.5 -2h942q-19 -19 -33 -38t-25.5 -40t-23.5 -44.5t-21 -41.5q-23 -52 -46.5 -96.5t-66 -77.5t-108 -51.5t-168.5 -18.5h-450q-9 0 -18.5 -2.5t-14.5 -9.5t-9.5 -16.5t-4.5 -18.5t4.5 -16t9.5 -14.5t14.5 -12t18.5 -4.5h450h4.5h7h5h6.5q117 0 194.5 28
t127 70.5t77.5 96t51 100.5t42 84.5t49.5 63.5t73 42.5t112.5 16.5q122 -5 206.5 18.5t140.5 61t93.5 86.5t70.5 96q28 38 54 73t58.5 61t82 40t119.5 14h328v93h-328z" />
    <glyph glyph-name="uniE022" unicode="&#xe022;" 
d="M1898 -112v618l464 113q9 0 16.5 4.5t12 14t7 16.5t2.5 21q-5 9 -9.5 16t-11.5 12t-16.5 7t-18.5 -2l-446 -103v576q0 5 2.5 5t5 2.5l4.5 4.5t7 2l474 638q5 5 7 14t2 18.5t-4.5 19t-14.5 13.5q-9 5 -16 7.5t-16.5 0t-19 -7t-13.5 -9.5l-418 -562v923h-37v-966l-413 188
q-5 5 -11.5 5h-11.5t-9.5 -2.5t-9.5 -2.5l-440 -253v1031h-38v-1017l-412 356q-5 5 -9.5 7t-9.5 2t-9.5 2.5t-9.5 -2.5h-9.5t-9 -2t-7 -7t-7.5 -9l-407 -549v1219h-38v-2381q0 -5 2.5 -7.5l4.5 -4.5l4.5 -4.5t7.5 -2.5h2381v38h-502zM966 286q5 0 7 2.5t4.5 4.5t4.5 2t2 5
l450 544l418 -328v-2.5q0 -2.5 2 -2.5h2h5v-623h-895v398zM970 1111l460 267l431 -197v-553l-403 314q-9 9 -16.5 11.5t-16.5 0.5t-18.5 -7t-14.5 -9l-426 -511v684q5 0 4.5 0h-0.5zM56 900l436 586l427 -366q0 -5 2 -4.5t2 -2t2.5 -2.5h2.5v-722l-426 159q-5 0 -7.5 2.5
t-7 2.5h-7h-7.5l-435 -98v431q5 0 7 2.5t4.5 4.5t4.5 4.5zM38 361l440 94l450 -169v-398h-890v473z" />
    <glyph glyph-name="uniE023" unicode="&#xe023;" 
d="M1856 722q-14 0 -28 -2.5t-28 -9.5t-26 -14t-21 -16l-389 267q5 9 12 23t9.5 26t4.5 26t2 28q0 47 -18.5 87t-49 70.5t-70.5 49t-87 18.5h-14h-12t-11.5 -2.5t-9.5 -2.5l-126 347q19 9 33 23.5t23 31t14 37.5t5 39q0 33 -12 59t-33 47t-46.5 32.5t-58.5 11.5
q-28 0 -56.5 -11.5t-49.5 -32.5t-32.5 -47t-11.5 -59t11.5 -58.5t32.5 -46.5t49.5 -33t56.5 -12h7h4.5h5h6.5l122 -346q-28 -14 -49 -35.5t-37.5 -47t-26 -56t-9.5 -63.5q0 -19 2.5 -37.5t9.5 -37.5t16.5 -35.5t18.5 -30.5l-417 -426q-9 5 -18.5 9.5t-19 7t-21 4.5t-21.5 2
q-33 0 -61 -11.5t-46.5 -32.5t-30.5 -47t-12 -59q0 -28 12 -56t30.5 -49t46.5 -33t61 -12q28 0 56.5 12t49.5 33t32.5 49t11.5 56q0 14 -2 26t-7 21t-9.5 21t-9.5 21l417 427q14 -9 30.5 -18.5t33 -16.5t35 -9.5t37.5 -2.5q23 0 47 4.5t45 14t39.5 23.5t32.5 33l389 -267
q-5 -5 -7 -14.5t-4.5 -16.5t-2.5 -14v-16q0 -33 12 -58.5t33 -47t46.5 -33t58.5 -11.5t59 11.5t47 33t32.5 47t11.5 58.5t-11.5 58.5t-32.5 46.5t-47 33t-59 12zM1434 314h947v-159h-947v159zM19 94h947v-155h-947v155zM253 2161h1331v-155h-1331v155z" />
    <glyph glyph-name="uniE024" unicode="&#xe024;" 
d="M1200 2077q-103 0 -201.5 -21.5t-190 -59t-176 -93.5t-159.5 -126q-150 -150 -225 -340t-75 -387t75 -387t225 -340q75 -70 152.5 -124t164.5 -91.5t180.5 -58.5t191.5 -26v1027v7v4.5t2.5 2.5t2.5 5h2.5q2.5 0 2.5 2v2v2.5v2.5l726 722q-70 66 -152 117.5t-171 86.5
t-183 54t-192 19zM1950 352q136 145 206.5 327.5t70.5 370.5t-70.5 370.5t-206.5 327.5l-698 -698zM1167 1069q0 -5 -2.5 -5t-2.5 -2.5v-4.5v-7v7t2.5 4.5l2.5 2.5v5zM1898 300l-660 661v-938q94 5 182.5 24t173 54t159.5 84t145 115z" />
    <glyph glyph-name="uniE025" unicode="&#xe025;" 
d="M1425 1809q98 0 182.5 -37.5t148 -103t101 -150t37.5 -182.5v-12v-11.5v-9.5v-9l-10 -80l80 -19q75 -23 138.5 -65t108 -101t70 -129t25.5 -150q0 -94 -35 -178t-98.5 -145t-145.5 -98.5t-175 -37.5h-1407q-70 0 -135.5 28t-112.5 77t-75 112.5t-28 138.5q0 61 18.5 117
t54 100.5t84.5 77.5t110 47l61 19l9 61q5 75 38 138t86.5 110t119.5 75t141 28q5 0 11.5 -2t13.5 -2h14h17l80 -14l23 75q23 75 68 135.5t103.5 105t128.5 68t150 23.5zM1425 1903q-94 0 -180.5 -30.5t-157 -82t-122 -124t-79.5 -161.5q-9 5 -18.5 4.5t-16.5 -0.5t-16.5 2.5
t-18.5 2.5q-94 0 -176 -35t-147.5 -91.5t-105.5 -136q-39 -79.5 -49 -168.5q-75 -19 -136 -61t-105.5 -98.5t-70.5 -126.5t-26 -150q0 -94 35 -176t96 -143t143 -96t171 -35h1407q112 0 213 44.5t176 119.5t117 176t42 213q0 98 -30.5 185t-86.5 157t-131 119.5
q-74 49.5 -164 72.5v12v14v12v14q0 117 -45 220t-120 180.5t-178 122t-220 44.5z" />
    <glyph glyph-name="uniE026" unicode="&#xe026;" 
d="M1631 1425q9 -19 23.5 -35.5t33 -28t39.5 -18.5t40 -7q23 0 44.5 7t40 18.5t30.5 28t21 35.5h497v37h-483v7.5v5v7v4.5q0 33 -11.5 61t-30.5 46.5t-47 30.5t-61 12q-28 0 -56 -12t-49 -30.5t-33 -46.5t-12 -61v-4.5q0 -4.5 2.5 -7t2.5 -5v-7.5h-10v788h-37v-788h-750v80
q19 19 33 40t25.5 42t16.5 47t5 54t-5 54t-16.5 47t-25.5 42t-33 40v342h-37v-314q-14 9 -30.5 16t-33 12t-33 7t-35.5 2q-52 0 -96 -18.5t-79.5 -53.5t-54 -79.5t-18.5 -96.5t18.5 -96.5t54 -79.5t80 -53.5t95.5 -18.5q19 0 35.5 2t33 7t32.5 12q17 7 31 16v-52h-788v-37
h788v-347q-61 -5 -115 -28t-94 -65.5t-61 -98.5t-21 -117v-23.5t2.5 -26t4.5 -21t7 -23.5h-511v-37h525q19 -38 44.5 -68.5t61 -54t75 -37.5q40.5 -14 82.5 -19v-609h37v609q42 5 82 19t75 37.5t61 54q27 30.5 45 68.5h487v-788h37v788h788v37h-788v750h19zM1575 675h-473
q5 14 7 23.5t4.5 21t2.5 25.5v24q0 61 -21.5 117t-61 98.5t-93.5 65.5t-115 28v347h750v-750zM2297 366q0 -47 -19 -87t-49.5 -70.5t-70 -49t-86.5 -18.5t-89 18.5t-72.5 49t-47 70.5t-16.5 87t16.5 89t47 72.5t72.5 47t89 16.5t86.5 -16.5t70 -47t49.5 -73t19 -88.5z
M1411 141q0 -28 -11.5 -56.5t-33 -49.5t-47 -32.5t-58.5 -11.5t-58.5 11.5t-47 32.5t-33 49t-11.5 57q0 33 11.5 58.5t33 46.5t47 33t58.5 12t58.5 -12t47 -33t33 -47t11.5 -58z" />
    <glyph glyph-name="uniE027" unicode="&#xe027;" 
d="M895 2152q136 0 305 -16.5t333 -49.5t307 -80t227 -98q14 -9 40 -28t51.5 -52t49 -84.5t28.5 -126.5q9 -117 21 -281t12 -337.5t-19 -337.5t-66 -281q-19 -42 -47 -80t-60.5 -70.5t-68 -58.5t-67.5 -40q-89 -42 -204 -75t-244 -58.5t-267 -37.5t-279 -12
q-61 0 -124.5 2.5t-122 9.5t-112.5 16.5t-100 18.5q-42 9 -82 35t-75.5 61.5t-68 82t-56.5 103.5q-52 117 -65.5 292.5t-4.5 365.5t39.5 375t63.5 326q9 42 30.5 98.5t49.5 115t65.5 112.5t84.5 86q38 28 75 47t74.5 28.5t77.5 16.5t77 7q14 5 28.5 5h28.5h30.5h34.5z
M895 2245h-35h-32.5h-33t-30.5 -4q-42 0 -84 -7t-87 -21.5t-89.5 -35.5q-45.5 -21 -91.5 -54q-56 -42 -100.5 -103t-77 -126.5t-56 -128.5t-33.5 -110q-33 -136 -61 -326t-39.5 -389t5 -384.5t72.5 -316.5q28 -61 63 -117t77.5 -98.5t94 -73t107.5 -44.5q52 -14 110.5 -23.5
t119.5 -16.5t124 -9t129 -2q145 0 288 11.5t276.5 37.5t255.5 63.5t216 79.5q33 19 75 47t82 65.5t75 84.5t54 98q52 127 70.5 293.5t20.5 342t-9.5 344.5t-20.5 305q-9 84 -33 147.5t-56.5 105.5t-65.5 67.5q-33 26.5 -56 40.5q-98 56 -248.5 105t-321.5 84t-344.5 51.5
t-309.5 16.5zM1388 1500q0 -103 -40 -194.5t-108 -159.5t-157 -105.5t-192 -37.5t-194.5 37.5t-159.5 105.5t-105.5 159.5t-37.5 194.5t37.5 192t105.5 157t159.5 108t194.5 40t192 -40t157 -108t108 -157t40 -192zM2077 666q0 -89 -35.5 -169t-94 -138.5t-138 -93.5
t-168.5 -35t-169 35t-138.5 93.5t-93.5 138.5t-35 169t35 168.5t93.5 138t138.5 94t169 35.5t168.5 -35.5t138 -94t94 -138t35.5 -168.5zM961 450q0 -66 -23.5 -122t-65.5 -98t-98.5 -65.5t-121.5 -23.5q-66 0 -122.5 23.5t-98.5 65.5t-65.5 98t-23.5 122t23.5 122t65.5 98
t98.5 65.5t122.5 23.5t122 -23.5t98 -65.5t65.5 -98t23.5 -122zM2067 1561q0 -52 -18.5 -96.5t-54 -79.5t-80 -54t-95.5 -19q-52 0 -96.5 19t-79.5 54t-54 79.5t-19 96.5t19 96.5t54 79.5t79.5 53.5t96.5 18.5t96 -18.5t79.5 -53.5t54 -80t18.5 -96z" />
    <glyph glyph-name="uniE028" unicode="&#xe028;" 
d="M79 600q0 41 29.5 70.5t70.5 29.5h38l250 300l133 700h1q31 183 159.5 317.5t309.5 174.5l-2 3l-36 110q-13 39 7 67t61 28h200q41 0 61 -28t7 -67l-36 -110q-2 -2 -2 -3q181 -40 309.5 -174.5t159.5 -317.5h1l133 -700l250 -300h38q41 0 70.5 -29.5t29.5 -70.5
t-27.5 -81t-65.5 -55q-17 -7 -49.5 -18t-139 -39t-219 -50t-282.5 -39.5t-338 -17.5t-335.5 17t-287 41t-215 48t-142.5 41l-48 17q-38 15 -65.5 55t-27.5 81zM936 200q138 -10 264 -10t264 10q-30 -81 -102 -132t-162 -51t-162 51t-102 132z" />
    <glyph glyph-name="uniE029" unicode="&#xe029;" 
d="M-200 550v200q0 20 17 35t38 15h591l1200 1100h354v250q0 20 13 26t29 -6l522 -390q16 -13 16 -30.5t-16 -29.5l-522 -390q-16 -13 -29 -7t-13 27v250h-237l-1200 -1100h-708q-21 0 -38 14.5t-17 35.5zM-200 1650v200q0 20 17 35t38 15h708l431 -395l-222 -203l-326 298
h-591q-21 0 -38 14.5t-17 35.5zM1216 895l222 203l325 -298h237v250q0 20 13 26t29 -6l523 -390q17 -13 17 -30.5t-17 -29.5l-523 -390q-16 -13 -29 -7t-13 27v250h-354z" />
    <glyph glyph-name="uniE02A" unicode="&#xe02a;" 
d="M10 46q-2 -14 7 -22.5t22 -6.5l899 114q14 2 17 10.5t-7 18.5l-251 252l412 413q10 10 10 24.5t-10 24.5l-242 242q-10 10 -24.5 10t-24.5 -10l-413 -412l-252 251q-10 10 -18.5 7t-10.5 -17zM1281.5 1550.5q0.5 14.5 10.5 24.5l412 413l-252 252q-10 10 -6.5 18.5
t17.5 10.5l899 114q14 2 22.5 -7t6.5 -23l-114 -898q-2 -14 -10.5 -17.5t-18.5 6.5l-252 252l-413 -412q-10 -10 -24.5 -10t-25.5 10l-242 242q-10 10 -9.5 24.5z" />
    <glyph glyph-name="uniE02B" unicode="&#xe02b;" 
d="M100 200v2000q0 41 29.5 70.5t70.5 29.5h400v-500h1200v500h100l400 -400v-1700q0 -41 -29.5 -70.5t-70.5 -29.5h-200v1000h-1600v-1000h-200q-41 0 -70.5 29.5t-29.5 70.5zM1500 1900h200v400h-200v-400z" />
    <glyph glyph-name="uniE02C" unicode="&#xe02c;" 
d="M100 0v2400q0 41 29.5 70.5t70.5 29.5h2000q41 0 70.5 -29.5t29.5 -70.5v-2400q0 -41 -29.5 -70.5t-70.5 -29.5h-2000q-41 0 -70.5 29.5t-29.5 70.5zM200 100h300v200h-300v-200zM200 500h300v200h-300v-200zM200 900h300v200h-300v-200zM200 1300h300v200h-300v-200z
M200 1700h300v200h-300v-200zM200 2100h300v200h-300v-200zM600 100h1200v1000h-1200v-1000zM600 1300h1200v1000h-1200v-1000zM1900 100h300v200h-300v-200zM1900 500h300v200h-300v-200zM1900 900h300v200h-300v-200zM1900 1300h300v200h-300v-200zM1900 1700h300v200
h-300v-200zM1900 2100h300v200h-300v-200z" />
    <glyph glyph-name="uniE02D" unicode="&#xe02d;" 
d="M0 0v2500h200v-300h300v300h100v-300h300v300h100v-300h300v300h100v-300h300v300h100v-300h300v300h100v-52q68 50 150 50q104 0 177 -73t73 -177t-73 -177t-177 -73q-28 0 -64 9l-86 -130v-77h300v-100h-300v-300h300v-100h-300v-300h300v-100h-300v-300h300v-100h-300
v-300h300v-200h-2500zM200 315l160 185h-160v-185zM200 600h247l53 61v239h-300v-300zM200 1000h300v300h-300v-300zM200 1400h300v300h-300v-300zM200 1800h300v300h-300v-300zM299 200h201v232zM600 200h300v300h-300v-300zM600 777l37 42q-23 39 -32 81h-5v-123z
M600 1000h5q18 85 87 141.5t158 56.5q23 0 50 -5v107h-300v-300zM600 1400h300v300h-300v-300zM600 1800h300v300h-300v-300zM646 600h254v103q-27 -5 -50 -5q-52 0 -101 22zM1000 200h300v300h-300v-300zM1000 600h300v300h-205q-19 -96 -95 -152v-148zM1000 1147
q21 -16 38 -35l426 188h-64v-28l-100 -44v72h-300v-153zM1000 1400h300v300h-300v-300zM1000 1800h300v300h-300v-300zM1157 1000h143v63zM1400 200h300v300h-300v-300zM1400 600h300v300h-300v-300zM1400 1000h300v103q-80 17 -135 78l-165 -73v-108zM1400 1400h105
q16 73 69 125.5t126 67.5v107h-300v-300zM1400 1800h300v300h-300v-300zM1751 1598h3h-3zM1800 200h300v300h-300v-300zM1800 600h300v300h-300v-300zM1800 1000h300v300h-105q-14 -74 -67.5 -128t-127.5 -69v-103zM1800 1592q4 -1 13 -3.5t14 -3.5l77 115h-104v-108z
M1800 1800h169l131 198v102h-300v-300zM1950 1497q34 -45 44 -97h106v300h-17z" />
    <glyph glyph-name="uniE02E" unicode="&#xe02e;" 
d="M-25 1200q0 166 44 325t123 293t192.5 247.5t247.5 192.5t293 123t325 44t325 -44t293.5 -123t247.5 -192.5t192 -247.5t123 -293t44 -325t-44 -325t-123 -293.5t-192 -247.5t-247.5 -192t-293.5 -123t-325 -44t-325 44t-293 123t-247.5 192t-192.5 247.5t-123 293.5
t-44 325zM300 1200q0 -183 71.5 -349.5t192 -287t287 -192t349.5 -71.5t349.5 71.5t287 192t192 287t71.5 349.5t-71.5 349.5t-192 287t-287 192t-349.5 71.5t-349.5 -71.5t-287 -192t-192 -287t-71.5 -349.5zM900 739v922q0 11 6.5 14.5t14.5 -3.5l773 -455q8 -7 8 -17
t-8 -17l-773 -455q-8 -7 -14.5 -3.5t-6.5 14.5z" />
    <glyph glyph-name="uniE02F" unicode="&#xe02f;" 
d="M0 1205q0 61 11 154l316 79q29 110 89 216l-167 279q95 123 218 218l279 -167q106 60 216 89l79 316q94 11 154 11q62 0 154 -11l79 -316q111 -29 217 -89l279 167q123 -96 217 -218l-167 -279q58 -99 90 -216l315 -79q11 -80 11 -154q0 -75 -11 -154l-315 -79
q-31 -115 -90 -217l168 -278q-96 -123 -218 -218l-279 167q-100 -58 -217 -90l-79 -315q-79 -11 -154 -11q-74 0 -154 11l-79 315q-117 32 -216 90l-279 -167q-122 94 -218 217l167 279q-60 106 -89 217l-316 79q-11 92 -11 154zM777 1205q0 -173 122.5 -295.5t295.5 -122.5
t295.5 122.5t122.5 295.5t-122.5 295.5t-295.5 122.5t-295.5 -122.5t-122.5 -295.5z" />
    <glyph glyph-name="uniE030" unicode="&#xe030;" 
d="M200 224v252q0 86 57.5 149t142.5 72v1005q-85 10 -142.5 73t-57.5 149v252q0 92 66 158t158 66h252q93 0 158.5 -66t65.5 -158v-252q0 -86 -57.5 -149t-142.5 -73v-95l426 -407h477q9 78 73 139t148 61h252q93 0 158.5 -66t65.5 -158v-252q0 -93 -65.5 -158.5
t-158.5 -65.5h-252q-84 0 -148 61t-73 139h-538q-59 0 -103 42l-262 250v-495q85 -9 142.5 -72t57.5 -149v-252q0 -93 -65.5 -158.5t-158.5 -65.5h-252q-92 0 -158 65.5t-66 158.5zM400 224q0 -10 7 -17t17 -7h252q10 0 17 7t7 17v252q0 10 -7 17t-17 7h-252q-10 0 -17 -7
t-7 -17v-252zM400 1924q0 -10 7 -17t17 -7h252q10 0 17 7t7 17v252q0 10 -7 17t-17 7h-252q-10 0 -17 -7t-7 -17v-252zM1800 924q0 -10 7 -17t17 -7h252q10 0 17 7t7 17v252q0 10 -7 17t-17 7h-252q-10 0 -17 -7t-7 -17v-252z" />
    <glyph glyph-name="uniE031" unicode="&#xe031;" 
d="M-200 1050q0 -21 14.5 -35.5t35.5 -14.5h550v-247q0 -21 11 -26.5t27 8.5l524 436q16 13 15.5 31.5t-16.5 31.5l-522 431q-17 13 -28 8t-11 -26v-247h-550q-21 0 -35.5 -14.5t-14.5 -35.5v-300zM600 400q0 -41 29.5 -70.5t70.5 -29.5h400v-200q0 -49 39 -80
q28 -20 61 -20q14 0 26 3l1100 300q1 0 2.5 1t2.5 2t2 1q7 1 13 6q10 5 18 12q4 3 10 9q5 6 13 20q4 6 6 10q7 19 7 36v1800q0 20 -10 42q-4 6 -6 10q-12 16 -20 23q-1 1 -3 4q-2 1 -9 4q-13 8 -25 12q-10 2 -16 3q-2 0 -5.5 1t-5.5 1h-1600q-41 0 -70.5 -29.5t-29.5 -70.5
v-460l500 -412v-250l-500 -417v-261zM1300 231v1593l900 245v-1593z" />
    <glyph glyph-name="uniE032" unicode="&#xe032;" 
d="M-500 150v235q0 80 20.5 120.5t79.5 73.5q481 278 700 373v376q-100 74 -100 224v298q0 126 48.5 226t152.5 162t249 62t249 -62t152.5 -162t48.5 -226v-298q0 -150 -100 -223v-377q186 -76 700 -373q59 -33 79.5 -73.5t20.5 -120.5v-235q0 -21 -14.5 -35.5t-35.5 -14.5
h-2200q-20 0 -35 14.5t-15 35.5zM1210 1033.5q-1 16.5 7.5 31.5t26.5 34.5t37 36t44.5 41.5t43.5 47q62 72 81.5 150t19.5 232q0 95 47 183.5t139.5 149t208.5 61.5q116 -1 208.5 -61.5t139.5 -149t47 -183.5q0 -156 18.5 -233.5t79.5 -148.5q18 -21 43 -46.5t42.5 -42
t34 -36.5t24 -34.5t5.5 -31t-16 -31.5q-56 -61 -156.5 -114t-234.5 -61v-199q143 -62 295 -134t203 -101q49 -28 75.5 -61.5t26.5 -81.5v-100q0 -21 -13 -35.5t-33 -14.5h-754v328q0 103 -34.5 167.5t-134.5 121.5l-131 75v35q-83 4 -161 33q-94 52 -141 76q-38 29 -73 66
q-14 15 -15 31.5z" />
    <glyph glyph-name="uniE033" unicode="&#xe033;" 
d="M87 1196q0 227 89 434t238.5 356t357 237.5t434.5 88.5t429.5 -86t357.5 -241l-793 -788v-1116q-148 0 -290.5 40t-265 112t-226 175t-176.5 225t-114 267t-41 296zM1300 -12v1115l789 -788q-327 -327 -789 -327zM1405 1196l788 789q161 -160 244.5 -368.5t83.5 -420
t-83.5 -420t-244.5 -368.5z" />
    <glyph glyph-name="uniE034" unicode="&#xe034;" 
d="M58 1017q-55 345 85 658q92 204 254.5 359t371 239.5t431.5 84.5q166 0 324 -47.5t289.5 -132t240 -204t179.5 -258.5t103.5 -301t16.5 -327q-32 -335 -245 -604.5t-532 -379.5q-324 -111 -662 -24.5t-569 339.5q-232 253 -287 598zM646 1045q11 -39 47.5 -92t67.5 -58
q25 -4 75.5 5t70.5 22q11 9 20 7t13 -6t11 -12t14 -12t23 -4.5t24.5 -5t8.5 -21.5q-3 -27 -1 -51.5t16 -49.5q3 -5 12.5 -20.5t14 -23.5t8.5 -22t4 -26q0 -15 -14.5 -52.5t-3.5 -64.5q12 -29 17.5 -88.5t14 -113.5t30.5 -81q19 -23 104 5q53 17 117 140q5 11 22 29t22 29
q2 22 -6 45q0 17 13 30t32 25.5t27 21.5q15 17 16 37.5t-9.5 56t-11.5 39.5q-10 57 44 126q11 13 40 45t42.5 49t28 48t17.5 62q-14 -11 -28 -16.5t-24.5 -8t-25 1t-22 5.5t-23 12.5t-20.5 14t-22.5 18t-21.5 17.5q-18 15 -33 52.5t-26 50.5q-18 22 2.5 41t44.5 8
q25 -12 43 -57t34 -83.5t36 -38.5q33 0 72 24t56 41t53 56q-5 35 10.5 58t50.5 20q29 -3 48.5 -32t35.5 -32q10 -2 25 1.5t23.5 0t17.5 -21.5q11 -24 32 -114q0 -1 2.5 -14t5 -24t6.5 -24t9 -20.5t11 -7.5q23 0 30.5 24t7 56.5t3.5 40.5q15 32 59.5 73.5t75.5 48.5
q7 -7 11 -41t18 -38q23 -6 26 55q4 86 -27 206q-96 383 -399 585q-27 18 -50 17.5t-48.5 -7t-47.5 -3.5q-3 16 -20.5 21t-27.5 -10q-7 -11 -1 -38t-2 -31q-14 -7 -42 -4.5t-72 -1.5t-67 -19q-1 -1 -23.5 -17t-33.5 -21.5t-29 -11.5t-27.5 3t-12.5 32q23 3 32 20.5t5.5 36.5
t-14.5 28q-29 24 -160 14q-100 -7 -138.5 -21.5t-71.5 -62.5q-21 -27 -9 -48.5t34.5 -33t45 -29t22.5 -36.5q17 5 33.5 18.5t25 22t28.5 10.5t43 -15q44 -11 7 -45q-24 -22 -40 -23h-2q-25 13 -51.5 12.5t-44.5 -7.5t-44 -18.5t-43 -15.5q-119 -32 -135 -58q3 -5 11 -13
t14 -14.5t9.5 -14t-2 -14.5t-20.5 -14q-6 -3 -24 -2.5t-30.5 -3.5t-12.5 -19q0 -4 -1 -17t-1 -19.5v-18.5t2 -17.5t4.5 -14t8 -11.5t12.5 -5t17.5 0.5t23.5 8.5q39 18 113 83q19 16 30.5 23t25.5 4.5t27 -18.5q7 -9 23.5 -19t26.5 -20.5t10 -27.5q36 -10 35 10q0 19 -46 89
q-14 21 -12 23q14 13 49.5 -25.5t48.5 -60.5q2 -4 5 -9.5t9 -14.5t11.5 -16t12.5 -12t13 -4t11 9q4 6 0.5 16t-9 18t-4.5 15.5t12 10.5q24 1 33 -29.5t22 -36.5q4 -2 28 -9t38 -14.5t22 -18.5q32 -49 -10 -76.5t-87 -17.5q-34 7 -83 -5q-8 -2 -17 -15.5t-19 -21t-22 -0.5
q-48 32 -76 47q-11 6 -5.5 31.5t-14.5 27.5q-39 9 -119 -13q-15 -4 -57.5 -2t-52.5 -9q-20 -12 -41 -35t-45.5 -56.5t-34.5 -44.5q-37 -43 -21 -92q5 -16 -4.5 -52.5t-3.5 -56.5zM776 1733q-13 -15 20 -21q47 -10 85 3q8 2 12 6q47 41 14 102q-24 43 -66 59q-45 14 -60 -26
q4 -7 12 -17.5t13.5 -19.5t10 -19t3.5 -21t-8 -21q-5 -8 -18.5 -14t-17.5 -11zM1484.5 480q-0.5 -17 8.5 -31t26 -14q33 0 54.5 45t24.5 84q1 7 4 29.5t4 35t-3.5 29.5t-16.5 27q-12 -17 -41 -50.5t-41 -58t-18 -65.5q-1 -14 -1.5 -31z" />
    <glyph glyph-name="uniE035" unicode="&#xe035;" 
d="M-400 1250v100q0 20 14.5 35t35.5 15h350v350q0 20 14.5 35t35.5 15h100q21 0 35.5 -15t14.5 -35v-350h350q21 0 35.5 -15t14.5 -35v-100q0 -21 -14.5 -35.5t-35.5 -14.5h-350v-350q0 -21 -14.5 -35.5t-35.5 -14.5h-100q-21 0 -35.5 14.5t-14.5 35.5v350h-350
q-21 0 -35.5 14.5t-14.5 35.5zM100 150v235q0 80 20.5 120.5t79.5 73.5q481 278 700 372v377q-100 74 -100 223v299q0 126 48.5 226t152.5 162t249 62t249 -62t152.5 -162t48.5 -226v-298q0 -150 -100 -223v-378q186 -75 700 -372q59 -33 79.5 -73.5t20.5 -120.5v-235
q0 -21 -14.5 -35.5t-35.5 -14.5h-2200q-20 0 -35 14.5t-15 35.5z" />
    <glyph glyph-name="uniE036" unicode="&#xe036;" 
d="M-25 1200q0 166 44 325t123 293t192.5 247.5t247.5 192.5t293 123t325 44t325 -44t293.5 -123t247.5 -192.5t192 -247.5t123 -293t44 -325t-44 -325t-123 -293.5t-192 -247.5t-247.5 -192t-293.5 -123t-325 -44t-325 44t-293 123t-247.5 192t-192.5 247.5t-123 293.5
t-44 325zM300 1200q0 -259 140 -480l1240 1240q-221 140 -480 140q-183 0 -349.5 -71.5t-287 -192t-192 -287t-71.5 -349.5zM720 440q221 -140 480 -140q183 0 349.5 71.5t287 192t192 287t71.5 349.5q0 259 -140 480z" />
    <glyph glyph-name="uniE037" unicode="&#xe037;" 
d="M0 400v1000q0 166 117.5 283t282.5 117h545q-190 -80 -336 -200h-309q-41 0 -70.5 -29.5t-29.5 -70.5v-1200q0 -41 29.5 -70.5t70.5 -29.5h1200q41 0 70.5 29.5t29.5 70.5v126l200 150v-176q0 -166 -117 -283t-283 -117h-1000q-165 0 -282.5 117t-117.5 283zM403 694
q2 144 34.5 270t84 219t125 172t149 132t164.5 96t163.5 67.5t154 42t128.5 24t94 10.5v43q0 1 0.5 3t0.5 4v372q0 20 11.5 26t28.5 -6l987 -739q16 -12 16 -29.5t-16 -30.5l-985 -740q-17 -13 -28.5 -7t-12.5 27v418q0 3 -2 9v41q-52 3 -121.5 0t-144.5 -4.5t-158 -14.5
t-163 -30t-158 -50t-144 -75.5t-120.5 -106.5t-87.5 -143z" />
    <glyph glyph-name="uniE038" unicode="&#xe038;" 
d="M100 150v235q0 80 20.5 120.5t79.5 73.5q481 278 700 372v377q-100 74 -100 224v298q0 126 48.5 226t152.5 162t249 62t249 -62t152.5 -162t48.5 -226v-298q0 -149 -100 -223v-378q186 -75 700 -372q59 -33 79.5 -73.5t20.5 -120.5v-235q0 -21 -14.5 -35.5t-35.5 -14.5
h-2200q-20 0 -35 14.5t-15 35.5z" />
    <glyph glyph-name="uniE039" unicode="&#xe039;" 
d="M0 1200q0 225 80 430t225 367l211 -212q-103 -120 -159.5 -270t-56.5 -314q0 -183 71 -349.5t191 -287t287 -191.5t351 -71q145 0 255.5 34t227.5 109l-151 212q-12 17 -6 28.5t27 10.5h683q21 0 31.5 -14t3.5 -34l-220 -644q-6 -20 -19 -22t-25 15l-148 204l-6 -4
q-145 -95 -320 -145t-333 -51q-257 0 -482 95t-381.5 256.5t-246.5 382t-90 465.5zM404 2096q121 107 260 176l114 -276q-87 -46 -163 -112zM821 2338q140 46 279 57v-300q-88 -9 -165 -34zM1300 2095v300q131 -11 251 -48l-116 -278q-70 19 -135 26zM1648 1980l115 279
q97 -52 187 -125l-213 -213q-43 32 -89 59zM1921 1737l213 213q59 -72 109 -161l-279 -116q-22 35 -43 64zM2075 1427l279 126q6 -21 13 -61t12.5 -66t8.5 -26h-303q-3 0 -10 27z" />
    <glyph glyph-name="uniE03A" unicode="&#xe03a;" 
d="M16 1200q0 241 94 460t252.5 377.5t377.5 252.5t460 94t460 -94t377.5 -252.5t252.5 -377.5t94 -460t-94 -460t-252.5 -377.5t-377.5 -252.5t-460 -94t-460 94t-377.5 252.5t-252.5 377.5t-94 460zM277 1200q0 -187 73 -358t197 -295t295 -197t358 -73t358 73t295 197
t197 295t73 358q0 178 -65 339t-182 287l-169 -168q84 -94 131 -211.5t47 -246.5q0 -139 -54.5 -266t-146.5 -218.5t-218.5 -146t-265.5 -54.5t-265.5 54.5t-218 146t-146 218.5t-54.5 266q0 137 51.5 260.5t144.5 218.5q-18 34 -18 71q0 64 46 110t110 46q77 0 123 -61
q111 39 227 39q74 0 144 -15l-17 -68q-64 14 -127 14q-100 0 -197 -33q3 -16 3 -32q0 -65 -45.5 -110.5t-110.5 -45.5q-51 0 -93 31q-81 -85 -126.5 -194.5t-45.5 -230.5q0 -167 82.5 -308.5t224 -224t308.5 -82.5t308.5 82.5t224 224t82.5 308.5q0 233 -157 408l-165 -164
q92 -110 92 -244q0 -159 -113 -272t-272 -113q-64 0 -137 27q-46 -48 -113 -48q-65 0 -110.5 45.5t-45.5 110.5t48 113q-26 68 -26 137q0 159 112.5 271.5t271.5 112.5q38 0 70 -7l-15 -63q-30 5 -55 5q-132 0 -225.5 -93.5t-93.5 -225.5q0 -49 18 -103q24 9 51 9
q64 0 110 -46t46 -110q0 -27 -9 -51q54 -18 103 -18q132 0 225.5 93.5t93.5 225.5q0 111 -71 198l-222 -221q-25 -25 -49 0q-11 11 -11 24.5t11 24.5l649 650q-126 117 -287 182t-339 65q-187 0 -358 -73t-295 -197t-197 -295t-73 -358z" />
    <glyph glyph-name="uniE03B" unicode="&#xe03b;" 
d="M100 600v300q0 41 29.5 70.5t70.5 29.5h100v1400h300v-1400h100q41 0 70.5 -29.5t29.5 -70.5v-300q0 -41 -29.5 -70.5t-70.5 -29.5h-500q-41 0 -70.5 29.5t-29.5 70.5zM200 700h500v50h-500v-50zM300 0v400h300v-400h-300zM900 1100v300q0 41 29.5 70.5t70.5 29.5h100
v900h300v-900h100q41 0 70.5 -29.5t29.5 -70.5v-300q0 -41 -29.5 -70.5t-70.5 -29.5h-500q-41 0 -70.5 29.5t-29.5 70.5zM1000 1200h500v50h-500v-50zM1100 0v900h300v-900h-300zM1700 1600v300q0 41 29.5 70.5t70.5 29.5h100v400h300v-400h100q41 0 70.5 -29.5t29.5 -70.5
v-300q0 -41 -29.5 -70.5t-70.5 -29.5h-500q-41 0 -70.5 29.5t-29.5 70.5zM1800 1700h500v50h-500v-50zM1900 0v1400h300v-1400h-300z" />
    <glyph glyph-name="uniE03C" unicode="&#xe03c;" 
d="M9 293q0 14 10 25l413 412l-252 252q-10 11 -7 19t17 10l899 115q14 2 22.5 -7t7.5 -23l-115 -899q-1 -14 -10 -17t-19 7l-252 252l-412 -413q-11 -10 -25.5 -10t-24.5 10l-242 242q-10 11 -10 25zM1281 1304l115 899q2 14 10.5 17t18.5 -7l252 -252l412 413
q11 10 25.5 10t24.5 -10l242 -242q10 -10 10 -25t-10 -25l-413 -413l252 -252q10 -10 7 -18t-17 -10l-899 -115q-14 -2 -22.5 7t-7.5 23z" />
    <glyph glyph-name="uniE03D" unicode="&#xe03d;" 
d="M-1 1203q0 244 95 466t256 383t383 256t466 95t466 -95.5t383 -256.5t256 -383t95 -466q0 -25 -1.5 -48.5t-3.5 -39.5t-7 -51.5t-8 -62.5h-304l10 62.5t8 52.5t4 38.5t2 48.5q0 183 -71.5 350t-192 288t-287 192.5t-349.5 71.5t-349.5 -71.5t-287 -192t-192 -287
t-71.5 -349.5t71 -349.5t191.5 -287t287.5 -192t351 -71.5q146 1 256.5 35t226.5 108l-152 212q-12 17 -6 29t27 11h684q20 0 30.5 -14t4.5 -34l-221 -644q-6 -20 -19 -22.5t-25 14.5l-148 205l-5 -4q-146 -95 -321 -145.5t-332 -50.5q-257 0 -482 95t-382 256.5t-247 382
t-90 465.5zM700 1152v96q0 21 14.5 36.5t35.5 15.5h276q29 42 75.5 71.5t98.5 29.5q19 0 57 -10l323 324q15 14 36 14t35 -14l69 -70q15 -14 15 -35t-15 -36l-326 -327q6 -30 6 -48q0 -83 -58.5 -141.5t-141.5 -58.5q-52 0 -98.5 29.5t-75.5 71.5h-276q-21 0 -35.5 15.5
t-14.5 36.5z" />
    <glyph glyph-name="uniE03E" unicode="&#xe03e;" 
d="M0 150v200q0 20 14.5 35t35.5 15h2300q21 0 35.5 -15t14.5 -35v-200q0 -21 -14.5 -35.5t-35.5 -14.5h-2300q-21 0 -35.5 14.5t-14.5 35.5zM0 750v200q0 20 14.5 35t35.5 15h2300q21 0 35.5 -15t14.5 -35v-200q0 -21 -14.5 -35.5t-35.5 -14.5h-2300q-21 0 -35.5 14.5
t-14.5 35.5zM0 1350v200q0 20 14.5 35t35.5 15h2300q21 0 35.5 -15t14.5 -35v-200q0 -21 -14.5 -35.5t-35.5 -14.5h-2300q-21 0 -35.5 14.5t-14.5 35.5zM0 1950v200q0 20 14.5 35t35.5 15h2300q21 0 35.5 -15t14.5 -35v-200q0 -21 -14.5 -35.5t-35.5 -14.5h-2300
q-21 0 -35.5 14.5t-14.5 35.5z" />
  </font>
</defs>
</svg>
